Descargar Diario de una Doctora T.2 8/8 gratis

Descargar Diario de una Doctora T.2 8/8 gratis


Descargar Descargar Diario de una Doctora T.2 8/8 gratis

Descargar Diario de una Doctora T.2 8/8 gratis descarga directa, descargar 1 link ver online, rapidshare, mediafire, torrent, full HD, dvdrip, rmvb, castellano, español latino, mejores descargas

Diario de una Doctora
( Los Hombres son la Mejor Medicina ) | Temporada 2 | Capitulos [8/8]




· · · · · · · · · · · · · · · : : | Ficha Técnica | : : · · · · · · · · · · · · · · ·

Título: Diario de una Doctora ( Los Hombres son la Mejor Medicina )
Título Original: Doctor’s Diary – Männer sind die beste Medizin
Año: 2008
País: Germany
Duración: 60 min.
Género: Comedy | Romance
Creador: Bora Dagtekin Steffi Ackermann
Productora: RTL / Polyphon Film-und Fernsehgesellschaft


· · · · · · · · · · · · · · · : : | Reparto | : : · · · · · · · · · · · · · · ·

✭ Diana Amft | ✭ Peter Prager | ✭ Ursela Monn | ✭ Florian David Fitz | ✭ Kai Schumann | ✭ Laura Osswald | ✭ Annette Strasser | ✭ Fabian Oscar Wien | ✭ Julia Koschitz


· · · · · · · · · · · · · · · : : | Sinopsis | : : · · · · · · · · · · · · · · ·

Sinopsis: En “Diario de una doctora”, definida como una versión aleman de “Anatomía de Grey” con una mezcla de “El diario de Bridget Jones”, a Gretchen Haase (Diana Amft) se le acumulan los problemas. Su prometido le ha engañado con otra el mismo día en que ella hacía la última prueba del vestido de novia, así que necesita cambiar de aires. ¿La solución? volver a casa de sus padres, olvidarse del amor, ponerse a régimen y centrarse en su trabajo de residente. Pero, a estas alturas de la vida, la protagonista de Diario de una doctora ya sabe que los planes no siempre salen como tenía previsto. El aprendizaje para convertirse en cirujano va a poner a prueba sus habilidades como médico y, por si fuera poco, en seguida va a verse inmersa en un triángulo amoroso con los doctores Marc Meier (Florian David Fitz), su amor platónico del instituto, y Mehdi Kaan (Kai Schumann), un ginecólogo tierno y atento pero que guarda un oscuro secreto…


FilmAffinity Diario de una doctora – los hombres son la mejor medicina (Serie de TV) (2008) – FilmAffinity


Temporada: 2
Nº de Capitulos: 8
Rip: DVD+DVB
Formato: 480p
Contenedor: AVI
Audio: Latino e Inglés
Tamaño: 600MB





General
Format : AVI
Format/Info : Audio Video Interleave
File size : 632 MiB
Duration : 47mn 6s
Overall bit rate : 1 876 Kbps


Video
ID : 0
Format : MPEG-4 Visual
Format profile : Advanced Simple@L5
Format settings, BVOP : 2
Format settings, QPel : No
Format settings, GMC : No warppoints
Format settings, Matrix : Default (H.263)
Codec ID : XVID
Codec ID/Hint : XviD
Duration : 47mn 6s
Bit rate : 1 542 Kbps
Width : 704 pixels
Height : 400 pixels
Display aspect ratio : 16:9
Frame rate : 25.000 fps
Color space : YUV
Chroma subsampling : 4:2:0
Bit depth : 8 bits
Scan type : Progressive
Compression mode : Lossy
Bits/(Pixel*Frame) : 0.219
Stream size : 519 MiB (82%)
Writing library : XviD 1.2.1 (UTC 2008-12-04)

Audio #1
ID : 1
Format : MPEG Audio
Format version : Version 1
Format profile : Layer 3
Mode : Joint stereo
Mode extension : MS Stereo
Codec ID : 55
Codec ID/Hint : MP3
Duration : 47mn 6s
Bit rate mode : Constant
Bit rate : 160 Kbps
Channel(s) : 2 channels
Sampling rate : 48.0 KHz
Compression mode : Lossy
Stream size : 53.9 MiB (9%)
Alignment : Split accross interleaves
Interleave, duration : 40 ms (1.00 video frame)
Interleave, preload duration : 500 ms
Writing library : LAME3.90.3

Audio #2
ID : 2
Format : MPEG Audio
Format version : Version 1
Format profile : Layer 3
Mode : Joint stereo
Mode extension : MS Stereo
Codec ID : 55
Codec ID/Hint : MP3
Duration : 47mn 6s
Bit rate mode : Constant
Bit rate : 160 Kbps
Channel(s) : 2 channels
Sampling rate : 48.0 KHz
Compression mode : Lossy
Stream size : 53.9 MiB (9%)
Alignment : Split accross interleaves
Interleave, duration : 40 ms (1.00 video frame)
Interleave, preload duration : 500 ms



Links Temporada 2

Uploaded Diario de una Doctora T2 | DVD+DVB | SD – Pastebin.com

· · · · · · · · · · · · · · · : : | Otras Temporadas | : : · · · · · · · · · · · · · · ·


☆ Temporada 1 en SD Aquí

Descargar Diario de una Doctora T.2 8/8 gratis descarga directa, descargar 1 link ver online, rapidshare, mediafire, torrent, full HD, dvdrip, rmvb, castellano, español latino, mejores descargas


Publicidad

Pega tu codigo aqui.

Deja tu comentario!