Descargar Imborrable T.1 gratis

Descargar Imborrable T.1 gratis


>>>Click aquí para Descargar Descargar Imborrable T.1 gratis<<<

Descargar Imborrable T.1 gratis descarga directa, descargar 1 link ver online, rapidshare, mediafire, torrent, full HD, dvdrip, rmvb, castellano, español latino, mejores descargas

Imborrable | Temporada 1 | Capitulos [03/22]



· · · · · · · · · · · · · · · : : | Ficha Técnica | : : · · · · · · · · · · · · · · ·

Título: Imborrable
Título Original: Unforgettable
Año: 2011
País: USA
Duración: 40 min.
Género: Drama
Creador: John Bellucci, Ed Redlich (Libro: Robert Lennon)
Productora: CBS Television Studios / Sony Pictures Television / Timberman-Beverly Productions / Woodridge Productions


· · · · · · · · · · · · · · · : : | Reparto | : : · · · · · · · · · · · · · · ·

✭ Poppy Montgomery | ✭ Dylan Walsh | ✭ Michael Gaston | ✭ Kevin Rankin | ✭ John Sharian | ✭ Daya Vaidya | ✭ Vanessa Aspillaga


· · · · · · · · · · · · · · · : : | Sinopsis | : : · · · · · · · · · · · · · · ·

Sinopsis: Carrie Wells tiene hipertimesia, es decir, puede recordarlo todo hasta el último detalle. Todo, salvo las claves que ayudarían a resolver el misterioso asesinato de su hermana. Así, Carrie utilizará su don para ayudar a resolver crímenes mientras intenta desbloquear los recuerdos que harán avanzar el caso de su hermana… En junio de 2012, la CBS confirmó que habría una segunda temporada en el verano de 2013 con otros 13 episodios, apenas dos meses después de que la cadena hubiera dicho que cancelaba la serie.


FilmAffinity Imborrable (Serie de TV) (2011) – FilmAffinity


Temporada: 1
Nº de Capitulos: 22
Rip: HDiTunes
Formato: 480p
Contenedor: AVI
Audio: Latino e Inglés
Tamaño: 600MB





General
Format : AVI
Format/Info : Audio Video Interleave
File size : 617 MiB
Duration : 41mn 39s
Overall bit rate : 2 070 Kbps

Video
ID : 0
Format : MPEG-4 Visual
Format profile : Advanced Simple@L5
Format settings, BVOP : 2
Format settings, QPel : No
Format settings, GMC : No warppoints
Format settings, Matrix : Default (H.263)
Codec ID : XVID
Codec ID/Hint : XviD
Duration : 41mn 39s
Bit rate : 1 800 Kbps
Width : 720 pixels
Height : 406 pixels
Display aspect ratio : 16:9
Frame rate : 25.000 fps
Color space : YUV
Chroma subsampling : 4:2:0
Bit depth : 8 bits
Scan type : Progressive
Compression mode : Lossy
Bits/(Pixel*Frame) : 0.246
Stream size : 536 MiB (87%)
Writing library : XviD 1.2.1 (UTC 2008-12-04)

Audio #1
ID : 1
Format : MPEG Audio
Format version : Version 1
Format profile : Layer 3
Mode : Joint stereo
Mode extension : MS Stereo
Codec ID : 55
Codec ID/Hint : MP3
Duration : 41mn 39s
Bit rate mode : Constant
Bit rate : 128 Kbps
Channel(s) : 2 channels
Sampling rate : 48.0 KHz
Compression mode : Lossy
Stream size : 38.1 MiB (6%)
Alignment : Aligned on interleaves
Interleave, duration : 40 ms (1.00 video frame)
Interleave, preload duration : 504 ms
Title : Spanish

Audio #2
ID : 2
Format : MPEG Audio
Format version : Version 1
Format profile : Layer 3
Mode : Joint stereo
Mode extension : MS Stereo
Codec ID : 55
Codec ID/Hint : MP3
Duration : 41mn 39s
Bit rate mode : Constant
Bit rate : 128 Kbps
Channel(s) : 2 channels
Sampling rate : 48.0 KHz
Compression mode : Lossy
Stream size : 38.1 MiB (6%)
Alignment : Aligned on interleaves
Interleave, duration : 40 ms (1.00 video frame)
Interleave, preload duration : 504 ms
Title : English


· · · · · · · · · · · · · · · : : | Servidores de Descarga | : : · · · · · · · · · · · · · · ·
Uploaded







Código:
 EP01: http://***********/enarxscx
EP02: http://***********/6uel9iue
EP03: http://***********/9bmurlpl

· · · · · · · · · · · · · · · : : | Otras Temporadas | : : · · · · · · · · · · · · · · ·



Descargar Imborrable T.1 gratis descarga directa, descargar 1 link ver online, rapidshare, mediafire, torrent, full HD, dvdrip, rmvb, castellano, español latino, mejores descargas



Deja tu comentario!