DEscargar True Blood temporada 5 completa gratis

DEscargar True Blood temporada 5 completa gratis


>>>Click aquí para Descargar DEscargar True Blood temporada 5 completa gratis<<<

DEscargar True Blood temporada 5 completa gratis ver online 1 link mediafire, rapidshare, dvdrip, español latino, castellano

True Blood
( Sangre Fresca ) | Temporada 5 | Capitulos [10/??]




· · · · · · · · · · · · · · · : : | Ficha Técnica | : : · · · · · · · · · · · · · · ·

Título: True Blood ( Sangre Fresca )
Título Original: True Blood
Año: 2008
País: USA
Duración: 55 min.
Género: Terror
Creador: Alan Ball
Productora: Home Box Office (HBO)


· · · · · · · · · · · · · · · : : | Reparto | : : · · · · · · · · · · · · · · ·

✭ Anna Paquin | ✭ Stephen Moyer | ✭ Sam Trammell | ✭ Ryan Kwanten | ✭ Rutina Wesley | ✭ Chris Bauer | ✭ Nelsan Ellis | ✭ Jim Parrack | ✭ Carrie Preston | ✭ William Sanderson


· · · · · · · · · · · · · · · : : | Sinopsis | : : · · · · · · · · · · · · · · ·

Sinopsis: En un pequeño pueblo del estado de Lousiana, la aparición de una serie de brutales asesinatos hace peligrar la convivencia entre vampiros y seres humanos, que hasta entonces han sido capaces de convivir en armonía gracias a una bebida japonesa compuesta de sangre sintética. Dicha convivencia no era bienvenida por todos, pues entre los vampiros desconfían y reniegan aquellos que prefieren seguir alimentándose de sangre humana, y por otro lado algunos hombres tampoco la desean. En ese entorno surge el polémico romance entre el primer vampiro que llega al pueblo, Bill Compton (Stephen Moyer, “Quills”), y una camarera, Sookie Stackhouse (Anna Paquin, “The Piano”), que puede leer la mente de la gente. Nueva serie de la HBO por parte del creador de “A dos metros bajo tierra”, Alan Ball. Basada en la serie de novelas ‘Southern vampire’, de la escritora norteamericana Charlaine Harris.


WebSite http://down.megarip.org/decode.php?h=aHR0cDovL3d3dy5jYW5hbHBsdXMuZXMvVHJ1ZS1CbG9vZC8=
FilmAffinity http://down.megarip.org/decode.php?h=aHR0cDovL3d3dy5maWxtYWZmaW5pdHkuY29tL2VzL2ZpbG0xMjU4ODYuaHRtbA==
IMDB http://down.megarip.org/decode.php?h=aHR0cDovL3d3dy5pbWRiLmVzL3RpdGxlL3R0MDg0NDQ0MS8=
YouTube http://down.megarip.org/decode.php?h=aHR0cDovL3d3dy55b3V0dWJlLmNvbS92L0lkN2hQR2FpLW5n


Temporada: 5
Nº de Capitulos: ??
Rip: HDiTunes
Formato: 480p
Contenedor: AVI
Audio: Latino e Inglés
Tamaño: 700MB
Rippeo:





General
Format : AVI
Format/Info : Audio Video Interleave
File size : 888 MiB
Duration : 56mn 31s
Overall bit rate : 2 197 Kbps
Writing application : VirtualDubMod 1.5.10.2 (build 2540/release)
Writing library : VirtualDubMod build 2540/release

Video
ID : 0
Format : MPEG-4 Visual
Format profile : Advanced Simple@L5
Format settings, BVOP : 2
Format settings, QPel : No
Format settings, GMC : No warppoints
Format settings, Matrix : Default (H.263)
Codec ID : XVID
Codec ID/Hint : XviD
Duration : 56mn 31s
Bit rate : 1 799 Kbps
Width : 720 pixels
Height : 406 pixels
Display aspect ratio : 16:9
Frame rate : 23.976 fps
Color space : YUV
Chroma subsampling : 4:2:0
Bit depth : 8 bits
Scan type : Progressive
Compression mode : Lossy
Bits/(Pixel*Frame) : 0.257
Stream size : 728 MiB (82%)
Writing library : XviD 1.2.1 (UTC 2008-12-04)

Audio #1
ID : 1
Format : MPEG Audio
Format version : Version 1
Format profile : Layer 3
Mode : Joint stereo
Codec ID : 55
Codec ID/Hint : MP3
Duration : 56mn 31s
Bit rate mode : Constant
Bit rate : 192 Kbps
Channel(s) : 2 channels
Sampling rate : 48.0 KHz
Compression mode : Lossy
Stream size : 77.6 MiB (9%)
Alignment : Aligned on interleaves
Interleave, duration : 42 ms (1.00 video frame)
Interleave, preload duration : 504 ms
Title : Spanish

Audio #2
ID : 2
Format : MPEG Audio
Format version : Version 1
Format profile : Layer 3
Mode : Joint stereo
Codec ID : 55
Codec ID/Hint : MP3
Duration : 56mn 31s
Bit rate mode : Constant
Bit rate : 192 Kbps
Channel(s) : 2 channels
Sampling rate : 48.0 KHz
Compression mode : Lossy
Stream size : 77.6 MiB (9%)
Alignment : Aligned on interleaves
Interleave, duration : 42 ms (1.00 video frame)
Interleave, preload duration : 504 ms
Title : English


· · · · · · · · · · · · · · · : : | Servidores de Descarga | : : · · · · · · · · · · · · · · ·
Uploaded







Código:
 EP01: http://***********/6xild2hx
EP02: http://***********/97mj24jz
EP03: http://***********/l5d2lsbx
EP04: http://***********/7jgw1cbl
EP05: http://***********/k7czkvdn
EP06: http://***********/cnrv1pe1
EP07: http://***********/rphp90uf
EP08: http://***********/8fjiqt2l
EP09: http://***********/2xzeurrf
EP10: http://***********/xr0lku3j

· · · · · · · · · · · · · · · : : | Otras Temporadas | : : · · · · · · · · · · · · · · ·


☆ Temporada 1 en SD Aquí
☆ Temporada 2 en SD Aquí
☆ Temporada 3 en SD Aquí
☆ Temporada 4 en SD Aquí
☆ Temporada 5 en SD Aquí


★ Temporada 1 en HD Aquí
★ Temporada 2 en HD Aquí
★ Temporada 3 en HD Aquí
★ Temporada 4 en HD Aquí
★ Temporada 5 en HD Aquí
DEscargar True Blood temporada 5 completa gratis ver online 1 link mediafire, rapidshare, dvdrip, español latino, castellano



Deja tu comentario!