El.jorobado.de.Notre.Dame.720p.AC3.Spanish.HDTV.19 96

El.jorobado.de.Notre.Dame.720p.AC3.Spanish.HDTV.19 96


Descargar El.jorobado.de.Notre.Dame.720p.AC3.Spanish.HDTV.19 96

El.jorobado.de.Notre.Dame.720p.AC3.Spanish.HDTV.19 96 ver gratis, descargar 1 link, las mejores peliculas 2012-2013, castellano, español latino, rmvb, dvdrip, rapidshare




TÍTULO ORIGINAL The Hunchback of Notre Dame
AÑO 1996
DURACIÓN 90 min.
PAÍS USA

DIRECTOR Gary Trousdale, Kirk Wise
GUIÓN Tab Murphy, Irene Mecchi, Bob Tzudiker, Noni White, Jonathan Roberts (Novela: Victor Hugo)
MÚSICA Alan Menken
FOTOGRAFÍA Animation
REPARTO Animation
PRODUCTORA Walt Disney Pictures
PREMIOS 1996: Nominada al Oscar: Mejor banda sonora original comedia o musical
1996: Nominada al Globo de Oro: Mejor banda sonora original (Alan Menken)
1996: Nominada a los Premios Razzie: Peor película con recaudación superior a los 100M $
GÉNERO Animación. Infantil. Drama. Musical | Siglo XV
SINOPSIS Oculto a las miradas de todos los ciudadanos de París, en lo alto del campanario de la catedral de Notre Dame, vive Quasimodo. Su tutor, el juez Frollo, no le permite bajar nunca del Campanario. En compañía de tres simpáticas gárgolas de piedra, Victor, Hugo y Laverne, Quasimodo pasa las horas observando el bullicioso ir y venir de la gente. Hasta que un día, decide bajar a escondidas y conoce a la bella Esmeralda, con la que vivirá su mayor aventura.
Tamaño: 3.95 Gb
Formato: AVC MKV
Resolucion: 1280*720
Profile: [email protected] Marcos = 3
Audio 1: Español AC3 384 Kbps 6 canales
Subtitulos: Español completos y forzados

MEDIAINFO


Spoiler


Format : Matroska
Format version : Version 2
File size : 3.96 GiB
Duration : 1h 27mn
Overall bit rate mode : Variable
Overall bit rate : 6 450 Kbps
Encoded date : UTC 2012-11-29 13:28:26
Writing application : mkvmerge v5.8.0 (‘No Sleep / Pillow’) built on Sep 2 2012 15:37:04
Writing library : libebml v1.2.3 + libmatroska v1.3.0

Video
ID : 1
Format : AVC
Format/Info : Advanced Video Codec
Format profile : [email protected]
Format settings, CABAC : Yes
Format settings, ReFrames : 3 frames
Codec ID : V_MPEG4/ISO/AVC
Duration : 1h 27mn
Bit rate mode : Variable
Bit rate : 6 144 Kbps
Maximum bit rate : 25.0 Mbps
Width : 1 280 pixels
Height : 720 pixels
Display aspect ratio : 16:9
Frame rate mode : Constant
Frame rate : 25.000 fps
Color space : YUV
Chroma subsampling : 4:2:0
Bit depth : 8 bits
Scan type : Progressive
Bits/(Pixel*Frame) : 0.267
Stream size : 3.65 GiB (92%)
Writing library : x264 core 68 r1195M 5d75a9b
Encoding settings : cabac=1 / ref=3 / deblock=1:0:0 / analyse=0×3:0×133 / me=umh / subme=7 / psy_rd=1.0:0.0 / mixed_ref=1 / me_range=16 / chroma_me=1 / trellis=1 / 8x8dct=1 / cqm=0 / deadzone=21,11 / chroma_qp_offset=-2 / threads=3 / nr=0 / decimate=1 / mbaff=0 / bframes=3 / b_pyramid=0 / b_adapt=1 / b_bias=0 / direct=3 / wpredb=1 / keyint=250 / keyint_min=25 / scenecut=40 / rc=2pass / bitrate=6144 / ratetol=1.0 / qcomp=0.60 / qpmin=10 / qpmax=51 / qpstep=4 / cplxblur=20.0 / qblur=0.5 / vbv_maxrate=25000 / vbv_bufsize=25000 / ip_ratio=1.40 / pb_ratio=1.30 / aq=1:1.00
Default : Yes
Forced : No

Audio
ID : 2
Format : AC-3
Format/Info : Audio Coding 3
Mode extension : CM (complete main)
Format settings, Endianness : Big
Codec ID : A_AC3
Duration : 1h 27mn
Bit rate mode : Constant
Bit rate : 384 Kbps
Channel(s) : 6 channels
Channel positions : Front: L C R, Side: L R, LFE
Sampling rate : 48.0 KHz
Bit depth : 16 bits
Compression mode : Lossy
Delay relative to video : 4ms
Stream size : 241 MiB (6%)
Title : Latino AC3 5.1[384Kbps]
Language : Spanish
Default : Yes
Forced : No

Text #1
ID : 3
Format : ASS
Codec ID : S_TEXT/ASS
Codec ID/Info : Advanced Sub Station Alpha
Compression mode : Lossless
Title : Latino
Language : Spanish
Default : No
Forced : No

Text #2
ID : 4
Format : ASS
Codec ID : S_TEXT/ASS
Codec ID/Info : Advanced Sub Station Alpha
Compression mode : Lossless
Title : Inglés
Language : English
Default : No
Forced : No



Links: Tusfiles, Netload, Uploaded, Rapidgator y billionuploads en partes de 100mg intercambiables
Archivos de Recuperación: 6

Clickear en uno de los mirrors.
Una vez en la pagina de ADF, esperar la cuenta atras y clickear en “saltar publicidad/Skip AD”
Bajar el RAR y cargar el DLC de su interior en el Jdownloader

Mirror 1
Mirror 2
El.jorobado.de.Notre.Dame.720p.AC3.Spanish.HDTV.19 96 ver gratis, descargar 1 link, las mejores peliculas 2012-2013, castellano, español latino, rmvb, dvdrip, rapidshare


Deja tu comentario!