Enredados [2010][BD-Rip 1080p AVC-Intra MKV][AC3 Esp/Ing]

Enredados [2010][BD-Rip 1080p AVC-Intra MKV][AC3 Esp/Ing]


>>>Click aquí para Descargar Enredados [2010][BD-Rip 1080p AVC-Intra MKV][AC3 Esp/Ing]<<<

Enredados [2010][BD-Rip 1080p AVC-Intra MKV][AC3 Esp/Ing] DVDRip Latino MEGA

Enredados:



Título: Enredados
Título Original: Tangled
País: EEUU
Duración: 100 min
Año: 2010
Género: Animación
Servidor: UploadStation, Filejungle y Fileserve
Codec: AVC-Intra 100
Audio: Español Digital Theater System (DTS 768 kbps)
Audio: Inglés Dolby Digital 5.1 (AC3 640 kbps)
Subtitulos: Inglés y Español
Resolución: 1920×1080
Tamaño: 3.96 GB
Formato: MKV (.mkv)
Nº de Partes por Fileserve, Filejungle y UploadStation: 10 + 2 (458.7MB)

Media Info:



Spoiler


General
Format : Matroska
Format version : Version 2
File size : 3.96 GiB
Duration : 1h 40mn
Overall bit rate : 5 618 Kbps
Movie name : Enredados by Ricjosep
Encoded date : UTC 2011-11-07 20:34:54
Writing application : mkvmerge v4.8.0 (‘I Got The…’) creado el May 24 2011 03:12:58
Writing library : libebml v1.2.0 + libmatroska v1.1.0

Video
ID : 1
Format : AVC
Format/Info : Advanced Video Codec
Format profile : [email protected]
Format settings, CABAC : Yes
Format settings, ReFrames : 3 frames
Muxing mode : Header stripping
Codec ID : V_MPEG4/ISO/AVC
Duration : 1h 40mn
Bit rate mode : Variable
Bit rate : 4 112 Kbps
Maximum bit rate : 35.0 Mbps
Width : 1 920 pixels
Height : 1 080 pixels
Display aspect ratio : 16:9
Frame rate : 23.976 fps
Standard : NTSC
Color space : YUV
Chroma subsampling : 4:2:0
Bit depth : 8 bits
Scan type : Progressive
Bits/(Pixel*Frame) : 0.083
Stream size : 2.90 GiB (73%)
Color primaries : BT.709-5, BT.1361, IEC 61966-2-4, SMPTE RP177
Transfer characteristics : BT.709-5, BT.1361
Matrix coefficients : BT.709-5, BT.1361, IEC 61966-2-4 709, SMPTE RP177

Audio #1
ID : 5
Format : AC-3
Format/Info : Audio Coding 3
Mode extension : CM (complete main)
Muxing mode : Header stripping
Codec ID : A_AC3
Duration : 1h 40mn
Bit rate mode : Constant
Bit rate : 640 Kbps
Channel(s) : 6 channels
Channel positions : Front: L C R, Side: L R, LFE
Sampling rate : 48.0 KHz
Bit depth : 16 bits
Compression mode : Lossy
Stream size : 462 MiB (11%)
Title : Ingles
Language : English

Audio #2
ID : 6
Format : DTS
Format/Info : Digital Theater Systems
Muxing mode : Header stripping
Codec ID : A_DTS
Duration : 1h 40mn
Bit rate mode : Constant
Bit rate : 755 Kbps
Channel(s) : 6 channels
Channel positions : Front: L C R, Side: L R, LFE
Sampling rate : 48.0 KHz
Bit depth : 24 bits
Compression mode : Lossy
Stream size : 545 MiB (13%)
Title : Latino
Language : Spanish

Text #1
ID : 2
Format : PGS
Muxing mode : zlib
Codec ID : S_HDMV/PGS
Codec ID/Info : The same subtitle format used on BDs/HD-DVDs
Title : Español
Language : Spanish

Text #2
ID : 3
Format : PGS
Muxing mode : zlib
Codec ID : S_HDMV/PGS
Codec ID/Info : The same subtitle format used on BDs/HD-DVDs
Title : Ingles
Language : English

Text #3
ID : 4
Format : PGS
Muxing mode : zlib
Codec ID : S_HDMV/PGS
Codec ID/Info : The same subtitle format used on BDs/HD-DVDs
Title : Ingles
Language : English


Sinopsis:

Flynn Rider, el más buscado -y encantador- bandido del reino, se esconde en una misteriosa torre y allí se encuentra con Rapunzel, una bella y avispada adolescente con una cabellera dorada de 21 metros de largo, que vive encerrada allí desde hace años. Ambos sellan un pacto y a partir de ese momento la pareja vivirá emocionantes aventuras en compañía de un caballo superpolicía, un camaleón sobreprotector y una ruda pandilla de matones.

Enlaces:





http://ncrypt.in/folder-q5TtBGep

Muestras:



Enredados [2010][BD-Rip 1080p AVC-Intra MKV][AC3 Esp/Ing] DVDRip Latino MEGA


Deja tu comentario!