Máxima condena (2012) [DVDRip] [Latino] [Acción]

Máxima condena (2012) [DVDRip] [Latino] [Acción]


>>>Click aquí para Descargar Máxima condena (2012) [DVDRip] [Latino] [Acción]<<<

Máxima condena (2012) [DVDRip] [Latino] [Acción] , ver online, español latino, castellano, dvdrip, HDRip, mediafire, rapidshare, descarga directa, putlocker, full HD



Título original: Maximum Conviction
Año: 2012
País: Estados Unidos
Director: Keoni Waxman
Guión: Richard Beattie
Música: Michael Richard Plowman
Fotografía: Nathan Wilson

Reparto:
Steven Seagal, Steve Austin, Michael Paré, Aliyah O’Brien, Bren Foster, Kirby Morrow, Steph Song, Zak Santiago, Michael Adamthwaite, Lauro Chartrand, Sharlene Royer, Christopher Gordon, Teach Grant, Bruce Crawford, Gouchy Boy

Sinopsis:
Cuando el ex agente de operaciones encubiertas Tom Steele (Seagal) y su compañero Manning (Austin) se asignan a desmantelar una antigua prisión, deben supervisar la llegada de dos mujeres presas misteriosas. En poco tiempo, una fuerza de élite de mercenarios asalta la cárcel en busca de los recién llegados. Mientras la verdadera identidad de las mujeres se revelan, Steele se da cuenta de que está atrapado en el medio de algo mucho más grande de lo que había imaginado.

DVDRip en Español
Audio capturado del TDT ya que esta pelicula no esta editada en nuestro pais.
Montaje: Señor Polichinela




Código:
General
Complete name : MaXCo.(2012).DVDRip.[Señor.Polichinela].avi
Format : AVI
Format/Info : Audio Video Interleave
File size : 946 MiB
Duration : 1h 33mn
Overall bit rate : 1 415 Kbps
Video
ID : 0
Format : xvid
Codec ID : xvid
Duration : 1h 33mn
Bit rate : 1 214 Kbps
Width : 720 pixels
Height : 406 pixels
Display aspect ratio : 16:9
Frame rate : 25.000 fps
Bits/(Pixel*Frame) : 0.166
Stream size : 811 MiB (86%)
Audio
ID : 1
Format : AC-3
Format/Info : Audio Coding 3
Mode extension : CM (complete main)
Codec ID : 2000
Duration : 1h 33mn
Bit rate mode : Constant
Bit rate : 192 Kbps
Channel(s) : 2 channels
Channel positions : Front: L R
Sampling rate : 48.0 KHz
Bit depth : 16 bits
Compression mode : Lossy
Stream size : 128 MiB (14%)
Alignment : Split accross interleaves
Interleave, duration : 40 ms (1.00 video frame)
Interleave, preload duration : 500 ms


1 Link



Código:
http://***********/fq59dk95
Links 190 MB



Código:
http://***********/bw34mw9s

http://***********/3fz5yj02

http://***********/435qx3w1

http://***********/kzvtgi5c

http://***********/mmccvcwd

Máxima condena (2012) [DVDRip] [Latino] [Acción] , ver online, español latino, castellano, dvdrip, HDRip, mediafire, rapidshare, descarga directa, putlocker, full HD


Deja tu comentario!