Niños Grandes [2010][BD-Rip 1080p AVC-Intra MKV][Ac3 Esp/Ing]

Niños Grandes [2010][BD-Rip 1080p AVC-Intra MKV][Ac3 Esp/Ing]


>>>Click aquí para Descargar Niños Grandes [2010][BD-Rip 1080p AVC-Intra MKV][Ac3 Esp/Ing]<<<

Niños Grandes [2010][BD-Rip 1080p AVC-Intra MKV][Ac3 Esp/Ing] DVDRip Latino MEGA

Niños Grandes:



Título: Niños Grandes
Título original:
Grown Ups
Duración: 102 min
Año: 2010
País: EEUU
Género: Comedia
Servidor: Megaupload, UploadStation y Fileserve
Codec: AVC-Intra 100
Audio: Dolby Digital 5.1 español y inglés (448kb/s)
Sutitulos: Español y Inglés
Resolucion: 1920×1080
Tamaño: 3.88 GB
Formato: MKV (.mkv)
Nº de Parte: 43+2



Código HTML:
Format                           : Matroska
File size : 3.88 GiB
Duration : 1h 42mn
Overall bit rate : 5 434 Kbps
Movie name : Niños Grandes by Ricjosep
Encoded date : UTC 2011-02-10 21:40:31
Writing application : mkvmerge v4.5.0 (‘Speed of Light’) creado el Feb 1 2011 02:10:32
Writing library : libebml v1.2.0 + libmatroska v1.1.0

Video
ID : 1
Format : AVC
Format/Info : Advanced Video Codec
Format profile : [email protected]
Format settings, CABAC : Yes
Format settings, ReFrames : 3 frames
Muxing mode : Header stripping
Codec ID : V_MPEG4/ISO/AVC
Duration : 1h 42mn
Bit rate mode : Variable
Bit rate : 4 430 Kbps
Maximum bit rate : 35.0 Mbps
Width : 1 920 pixels
Height : 1 080 pixels
Display aspect ratio : 16:9
Frame rate : 23.976 fps
Standard : NTSC
Color space : YUV
Chroma subsampling : 4:2:0
Bit depth : 8 bits
Scan type : Progressive
Bits/(Pixel*Frame) : 0.089
Stream size : 3.17 GiB (82%)
Color primaries : BT.709-5, BT.1361, IEC 61966-2-4, SMPTE RP177
Transfer characteristics : BT.709-5, BT.1361
Matrix coefficients : BT.709-5, BT.1361, IEC 61966-2-4 709, SMPTE RP177

Audio #1
ID : 4
Format : AC-3
Format/Info : Audio Coding 3
Mode extension : CM (complete main)
Muxing mode : Header stripping
Codec ID : A_AC3
Duration : 1h 42mn
Bit rate mode : Constant
Bit rate : 448 Kbps
Channel(s) : 6 channels
Channel positions : Front: L C R, Side: L R, LFE
Sampling rate : 48.0 KHz
Bit depth : 16 bits
Compression mode : Lossy
Stream size : 328 MiB (8%)
Title : Latino
Language : Spanish

Audio #2
ID : 5
Format : AC-3
Format/Info : Audio Coding 3
Mode extension : CM (complete main)
Muxing mode : Header stripping
Codec ID : A_AC3
Duration : 1h 42mn
Bit rate mode : Constant
Bit rate : 448 Kbps
Channel(s) : 6 channels
Channel positions : Front: L C R, Side: L R, LFE
Sampling rate : 48.0 KHz
Bit depth : 16 bits
Compression mode : Lossy
Stream size : 328 MiB (8%)
Title : Inglés
Language : English

Text #1
ID : 2
Format : PGS
Muxing mode : zlib
Codec ID : S_HDMV/PGS
Codec ID/Info : The same subtitle format used on BDs/HD-DVDs
Title : Latino
Language : Spanish

Text #2
ID : 3
Format : PGS
Muxing mode : zlib
Codec ID : S_HDMV/PGS
Codec ID/Info : The same subtitle format used on BDs/HD-DVDs
Title : Inglés
Language : English

Sinopsis:

Cinco hombres, que de niños fueron grandes amigos, se vuelven a reunir para pasar juntos el fin de semana del 4 de julio con sus respectivas mujeres e hijos, después de 30 años sin verse. Durante esos días retoman la relación en el mismo punto donde lo dejaron tantos años atrás y descubren que hacerse viejo no significa necesariamente haber madurado.


Enlaces:

Enlaces Intercambiables





http://ncrypt.in/folder-wPsE60Tu

Muestras:


Niños Grandes [2010][BD-Rip 1080p AVC-Intra MKV][Ac3 Esp/Ing] DVDRip Latino MEGA


Deja tu comentario!