Stardust [2007][BD-Rip 1080p AVC-Intra MKV][AC3/DTS Esp/Ing]

Stardust [2007][BD-Rip 1080p AVC-Intra MKV][AC3/DTS Esp/Ing]


Descargar Stardust [2007][BD-Rip 1080p AVC-Intra MKV][AC3/DTS Esp/Ing]

Stardust [2007][BD-Rip 1080p AVC-Intra MKV][AC3/DTS Esp/Ing] DVDRip Latino MEGA

Stardust:



Título: Stardust
Título Original: Stardust
País: EEUU
Duración: 127 min
Año: 2007
Género: Fantástico, Aventuras
Servidor: UploadStation, Filejungle y Fileserve
Codec: AVC-Intra 100
Audio: Español Dolby Digital 5.1 (AC3 640 kbps)
Audio: Inglés Digital Theater System (DTS 768 kbps)
Subtitulos: Inglés y Español
Resolución: 1920×1080
Tamaño: 7.74 GB
Formato: MKV (.mkv)
Nº de Partes por Fileserve, Filejungle y UploadStation: 19 + 8 (458.7MB)

Media Info:



Spoiler


General
Format : Matroska
Format version : Version 2
File size : 7.74 GiB
Duration : 2h 7mn
Overall bit rate : 8 676 Kbps
Movie name : Star Dust by Ricjosep
Encoded date : UTC 2011-10-18 14:57:43
Writing application : mkvmerge v4.8.0 (‘I Got The…’) creado el May 24 2011 03:12:58
Writing library : libebml v1.2.0 + libmatroska v1.1.0

Video
ID : 1
Format : AVC
Format/Info : Advanced Video Codec
Format profile : [email protected]
Format settings, CABAC : Yes
Format settings, ReFrames : 3 frames
Format settings, GOP : M=3, N=23
Muxing mode : Header stripping
Codec ID : V_MPEG4/ISO/AVC
Duration : 2h 7mn
Bit rate mode : Variable
Bit rate : 7 108 Kbps
Maximum bit rate : 35.0 Mbps
Width : 1 920 pixels
Height : 1 080 pixels
Display aspect ratio : 16:9
Frame rate : 23.976 fps
Standard : NTSC
Color space : YUV
Chroma subsampling : 4:2:0
Bit depth : 8 bits
Scan type : Progressive
Bits/(Pixel*Frame) : 0.143
Stream size : 6.34 GiB (82%)
Color primaries : BT.709-5, BT.1361, IEC 61966-2-4, SMPTE RP177
Transfer characteristics : BT.709-5, BT.1361
Matrix coefficients : BT.709-5, BT.1361, IEC 61966-2-4 709, SMPTE RP177

Audio #1
ID : 2
Format : AC-3
Format/Info : Audio Coding 3
Mode extension : CM (complete main)
Muxing mode : Header stripping
Codec ID : A_AC3
Duration : 2h 7mn
Bit rate mode : Constant
Bit rate : 640 Kbps
Channel(s) : 6 channels
Channel positions : Front: L C R, Side: L R, LFE
Sampling rate : 48.0 KHz
Bit depth : 16 bits
Compression mode : Lossy
Stream size : 585 MiB (7%)
Title : Latino
Language : Spanish

Audio #2
ID : 3
Format : DTS
Format/Info : Digital Theater Systems
Muxing mode : Header stripping
Codec ID : A_DTS
Duration : 2h 7mn
Bit rate mode : Constant
Bit rate : 755 Kbps
Channel(s) : 6 channels
Channel positions : Front: L C R, Side: L R, LFE
Sampling rate : 48.0 KHz
Bit depth : 24 bits
Compression mode : Lossy
Stream size : 689 MiB (9%)
Title : Ingles
Language : English

Text #1
ID : 4
Format : PGS
Muxing mode : zlib
Codec ID : S_HDMV/PGS
Codec ID/Info : The same subtitle format used on BDs/HD-DVDs
Title : Español
Language : Spanish

Text #2
ID : 5
Format : PGS
Muxing mode : zlib
Codec ID : S_HDMV/PGS
Codec ID/Info : The same subtitle format used on BDs/HD-DVDs
Title : Español
Language : Spanish

Text #3
ID : 6
Format : PGS
Muxing mode : zlib
Codec ID : S_HDMV/PGS
Codec ID/Info : The same subtitle format used on BDs/HD-DVDs
Title : Español Forzado
Language : Spanish

Text #4
ID : 7
Format : PGS
Muxing mode : zlib
Codec ID : S_HDMV/PGS
Codec ID/Info : The same subtitle format used on BDs/HD-DVDs
Title : Español Forzado
Language : Spanish

Text #5
ID : 8
Format : PGS
Muxing mode : zlib
Codec ID : S_HDMV/PGS
Codec ID/Info : The same subtitle format used on BDs/HD-DVDs
Title : Ingles
Language : English

Text #6
ID : 9
Format : PGS
Muxing mode : zlib
Codec ID : S_HDMV/PGS
Codec ID/Info : The same subtitle format used on BDs/HD-DVDs
Title : Ingles
Language : English


Sinopsis:

En un pequeño pueblo inglés, que tiene frontera con un territorio mágico e inaccesible, el joven Tristán (Charlie Cox) intenta conquistar el corazón de Victoria (Sienna Miller) y se va en busca de una estrella caída del cielo. Su viaje es una auténtica odisea que lo lleva a un país misterioso y prohibido, donde encuentra la estrella, que se ha convertido en la preciosa Yvaine (Claire Danes). Pero él no es el único que busca la estrella. Los cuatro hijos del Rey (Peter O’Toole) y los fantasmas de sus tres hermanos muertos, necesitan la estrella si quieren ocupar el trono. Tristan también debe vencer a Lamia (Michelle Pfeiffer), la malvada bruja que desea la estrella para recuperar la juventud. Tendrá, pues, que luchar denodadamente para deshacerse de todas estas amenazas. Sin embargo, cuando conoce al pirata llamado capitán Shakespeare (Robert De Niro) y al siniestro comerciante Ferdy the Fence (Ricky Gervais), cambiará el rumbo de su viaje y descubrirá el auténtico significado de él.

Enlaces:





http://ncrypt.in/folder-d6kbvxJj

Muestras:



Stardust [2007][BD-Rip 1080p AVC-Intra MKV][AC3/DTS Esp/Ing] DVDRip Latino MEGA


Deja tu comentario!