Stargate [1994][BD-Rip 1080p AVC-Intra MKV][AC3/DTS Esp/Ing]

Stargate [1994][BD-Rip 1080p AVC-Intra MKV][AC3/DTS Esp/Ing]


>>>Click aquí para Descargar Stargate [1994][BD-Rip 1080p AVC-Intra MKV][AC3/DTS Esp/Ing]<<<

Stargate [1994][BD-Rip 1080p AVC-Intra MKV][AC3/DTS Esp/Ing] DVDRip Latino MEGA

Stargate:



Título: Stargate
Título Original: Stargate
País: EEUU
Duración: 130 min
Año: 1994
Género: Ciencia Ficción
Servidor: Uploaded
Codec: AVC-Intra 100
Audio: Español Dolby Digital 5.1 (AC3 448 kbps)
Audio: Inglés Digital Theater System (DTS 768 kbps)
Subtitulos: Inglés y Español
Resolución: 1920×1080
Tamaño: 7.71 GB
Formato: MKV (.mkv)
Nº de Partes: 20+4 (458.7 MB)

Media Info:



Spoiler


General
Unique ID : 243961036382552775573833507203334660843 (0xB7892FBFFD8779C98730A5759DB1E2EB)
Complete name : D:\03 – Peliculas, Series y Documentales\00 – Mias\02 – Peliculas\Stargate.mkv
Format : Matroska
Format version : Version 2
File size : 7.71 GiB
Duration : 2h 10mn
Overall bit rate mode : Variable
Overall bit rate : 8 491 Kbps
Movie name : Stargate by Ricjosep
Encoded date : UTC 2011-12-23 10:47:30
Writing application : mkvmerge v4.8.0 (‘I Got The…’) creado el May 24 2011 03:12:58
Writing library : libebml v1.2.0 + libmatroska v1.1.0

Video
ID : 1
Format : AVC
Format/Info : Advanced Video Codec
Format profile : [email protected]
Format settings, CABAC : Yes
Format settings, ReFrames : 3 frames
Format settings, GOP : M=3, N=23
Muxing mode : Header stripping
Codec ID : V_MPEG4/ISO/AVC
Duration : 2h 10mn
Bit rate mode : Variable
Bit rate : 7 119 Kbps
Maximum bit rate : 35.0 Mbps
Width : 1 920 pixels
Height : 1 080 pixels
Display aspect ratio : 16:9
Frame rate : 24.000 fps
Standard : NTSC
Color space : YUV
Chroma subsampling : 4:2:0
Bit depth : 8 bits
Scan type : Progressive
Bits/(Pixel*Frame) : 0.143
Stream size : 6.47 GiB (84%)
Default : Yes
Forced : No
Color primaries : BT.709-5, BT.1361, IEC 61966-2-4, SMPTE RP177
Transfer characteristics : BT.709-5, BT.1361
Matrix coefficients : BT.709-5, BT.1361, IEC 61966-2-4 709, SMPTE RP177

Audio #1
ID : 3
Format : AC-3
Format/Info : Audio Coding 3
Mode extension : CM (complete main)
Muxing mode : Header stripping
Codec ID : A_AC3
Duration : 2h 10mn
Bit rate mode : Constant
Bit rate : 448 Kbps
Channel(s) : 6 channels
Channel positions : Front: L C R, Side: L R, LFE
Sampling rate : 48.0 KHz
Bit depth : 16 bits
Compression mode : Lossy
Stream size : 417 MiB (5%)
Title : Latino
Language : Spanish
Default : Yes
Forced : Yes

Audio #2
ID : 6
Format : DTS
Format/Info : Digital Theater Systems
Muxing mode : Header stripping
Codec ID : A_DTS
Duration : 2h 10mn
Bit rate mode : Constant
Bit rate : 755 Kbps
Channel(s) : 6 channels
Channel positions : Front: L C R, Side: L R, LFE
Sampling rate : 48.0 KHz
Bit depth : 24 bits
Compression mode : Lossy
Stream size : 702 MiB (9%)
Title : Ingles
Language : English
Default : No
Forced : No

Text #1
ID : 2
Format : UTF-8
Codec ID : S_TEXT/UTF8
Codec ID/Info : UTF-8 Plain Text
Title : Español Forzado
Language : Spanish
Default : Yes
Forced : Yes

Text #2
ID : 4
Format : UTF-8
Codec ID : S_TEXT/UTF8
Codec ID/Info : UTF-8 Plain Text
Title : Español
Language : Spanish
Default : No
Forced : No

Text #3
ID : 5
Format : UTF-8
Codec ID : S_TEXT/UTF8
Codec ID/Info : UTF-8 Plain Text
Title : Ingles
Language : English
Default : No
Forced : No



Sinopsis:

Un coronel y un científico, movidos por distintos intereses, investigan el misterioso hallazgo en unas excavaciones de un extraño artefacto al que llaman “Puerta de las Estrellas”. Acompañados de un equipo de reconocimiento, atraviesan la Puerta y son transportados a un lejano planeta.

Enlaces:



http://ncrypt.in/folder-DPMVK6HN

Muestras:



Stargate [1994][BD-Rip 1080p AVC-Intra MKV][AC3/DTS Esp/Ing] DVDRip Latino MEGA



Deja tu comentario!